Torrent i warez w jednym
 


Hobbit: Pustkowie Smauga - The Hobbit: The Desolation of Smaug (2013) [V2 CAM] [MURDER] [ENG]

 Percy Jackson Morze potworów Percy Jackson Sea of Monsters (2013) [BRRip] [x264] [ENG]Sucker Punch *2011* [DVDRip] [XviD] [Lektor PL]El Dorado *2010* [BRRip] [XviD] [Lektor PL] Hansel i Gretel: Łowcy Czarownic - Hansel And Gretel: Witch Hunters *2013* [480p] [BRRip] [XviD] [AC3] [Lektor PL] Conan Niszczyciel - Conan the Destroyer *1984* [DVDRip] [RMVB] [Lektor] Niewrażliwy -  Insensibles 2012 BluRay 1080p x264 DTS-MySiLU [PublicHD]  [ESP]Nieśmiertelny III: Mag - Highlander III: The Sorcerer *1994* [DVDRip] [XviD][Lektor PL]Piraci z Karaibów: Na nieznanych wodach / Pirates of the Caribbean: On Stranger Tides *2011* [DVDRip.XviD.MAXSPEED] [ENG]Dobra Wróżka - Tooth Fairy *2010* [DVD5] [DD 5.1] [Lektor i Napisy PL] [.iso]
 Hobbit: Pustkowie Smauga - The Hobbit: The Desolation of Smaug (2013) [V2 CAM] [MURDER] [ENG]  

Kategoria: Filmy / Fantasy
Rozmiar: 1.82 GB
Dodał: [U].Truski
Dodany: 2013-12-19 22:22
Pobrano: 10

 Hobbit: Pustkowie Smauga - The Hobbit: The Desolation of Smaug (2013) [V2 CAM] [MURDER] [ENG]  - Torki.pl  Hobbit: Pustkowie Smauga - The Hobbit: The Desolation of Smaug (2013) [V2 CAM] [MURDER] [ENG]  - Torki.pl
 Hobbit: Pustkowie Smauga - The Hobbit: The Desolation of Smaug (2013) [V2 CAM] [MURDER] [ENG]  Hobbit: Pustkowie Smauga - The Hobbit: The Desolation of Smaug (2013) [V2 CAM] [MURDER] [ENG]  Hobbit: Pustkowie Smauga - The Hobbit: The Desolation of Smaug (2013) [V2 CAM] [MURDER] [ENG] Reklama Sponsorowana

Premiery filmowe -  Hobbit: Pustkowie Smauga - The Hobbit: The Desolation of Smaug (2013) [V2 CAM] [MURDER] [ENG]



Film online

Film bez limitu  Hobbit: Pustkowie Smauga - The Hobbit: The Desolation of Smaug (2013) [V2 CAM] [MURDER] [ENG]



 Hobbit: Pustkowie Smauga - The Hobbit: The Desolation of Smaug (2013) [V2 CAM] [MURDER] [ENG]


Opis Pliku Torrent | filmy,filmy online,mp-3,gry




Tytuł: The Hobbit: The Desolation of Smaug
Polski tytuł: Hobbit: Pustkowie Smauga
====================

Ocena: IMDB - 8.4/10 (75.042), Filmweb - 8.0/10 (803)
Gatunek: Fantasy, Przygodowy
Produkcja: Nowa Zelandia, USA
Czas trwania: 2 godz. 41 min.
Premiera: 27 grudnia 2013 - Polska, 2 grudnia 2013 - Świat
Reżyseria: Peter Jackson
Scenariusz: Guillermo del Toro, Peter Jackson, Fran Walsh, Philippa Boyens


Po przejściu przez Góry Mgliste, pokonaniu króla goblinów i ucieczce przed wargami Bilbo Baggins (Martin Freeman), Gandalf Szary (Ian McKellen) oraz kompania trzynastu krasnoludów na czele z Thorinem Dębową Tarczą (Richard Armitage) wyruszają w dalszą drogę ku Samotnej Górze. Wspólnie kontynuują niezwykłą podróż, odwiedzają dom Beorna (Mikael Persbrandt), przemierzają Mroczną Puszczę, a za pomocą beczek udaje się im uwolnić z elfiej niewoli. Docierają do Esgaroth, a stąd już niedaleko do Ereboru, gdzie wewnątrz krasnoludzkiej twierdzy budzi się ze snu największy smok tych czasów, Smaug (Benedict Cumberbatch).


Ian McKellen ... Gandalf Szary
Martin Freeman ... Bilbo Baggins
Richard Armitage ... Thorin Dębowa Tarcza
Ken Stott ... Balin
Graham McTavish ... Dwalin
William Kircher ... Bifur / Troll Tom
James Nesbitt ... Bofur
Stephen Hunter ... Bombur


http://www.filmweb.pl/film/Hobbit%3A+Pustkowie+Smauga-2013-469867
http://www.thehobbit.com/
http://fdb.pl/film/174385-hobbit-pustkowie-smauga
http://www.imdb.com/title/tt1170358/?ref_=nv_sr_1


General
Complete name : The Hobbit The Desolation of Smaug 2013 V2 CAM MURDER.avi
Format : AVI
Format/Info : Audio Video Interleave
Format profile : OpenDML
File size : 1.82 GiB
Duration : 2h 29mn
Overall bit rate : 1 743 Kbps
Writing library : Lavf53.24.2

Video
ID : 0
Format : AVC
Format/Info : Advanced Video Codec
Format profile : Baseline@L2.1
Format settings, CABAC : No
Format settings, ReFrames : 1 frame
Codec ID : H264
Duration : 2h 29mn
Bit rate : 1 620 Kbps
Width : 550 pixels
Height : 266 pixels
Display aspect ratio : 2.068
Frame rate mode : Variable
Frame rate : 25.000 fps
Color space : YUV
Chroma subsampling : 4:2:0
Bit depth : 8 bits
Scan type : Progressive
Bits/(Pixel*Frame) : 0.443
Stream size : 1.69 GiB (93%)
Writing library : x264 core

Audio
ID : 1
Format : MPEG Audio
Format version : Version 1
Format profile : Layer 3
Mode : Joint stereo
Mode extension : MS Stereo
Codec ID : 55
Codec ID/Hint : MP3
Duration : 2h 29mn
Bit rate mode : Constant
Bit rate : 112 Kbps
Channel(s) : 2 channels
Sampling rate : 44.1 KHz
Compression mode : Lossy
Stream size : 119 MiB (6%)
Alignment : Aligned on interleaves
Interleave, duration : 26 ms (0.65 video frame)
Writing library : LAME3.98.4


 Hobbit: Pustkowie Smauga - The Hobbit: The Desolation of Smaug (2013) [V2 CAM] [MURDER] [ENG]  Hobbit: Pustkowie Smauga - The Hobbit: The Desolation of Smaug (2013) [V2 CAM] [MURDER] [ENG]

Tagi: Hobbit Pustkowie Smauga The Hobbit The Desolation Smaug 2013 V2 CAM MURDER ENG Filmy,Fantasy
Komentarze

Brak komentarzy

Filmy bez limitów
REKLAMA : torrent, warez, wstawiaj, upload, linki warez

stat4u portal pozycjonowany na frazy : polskie torrenty, darmowe torrenty, torrent, torrenty, bittorrent, warez, upload. Projekt i wykonanie Torki.pl © Wszelkie prawa Zastrzeżone
Darmowe torrenty