Torrent i warez w jednym
 


300: Początek imperium - 300: Rise of an Empire (2014) [CAM] [x264.AC3-TiTAN] [ENG]

Godzilla *1998* [PAL] [DVD9] [Lektor i Napisy PL]Snajper - Sniper *2009* [CN.DVDRip.XviD-PMCG]Cesarzowa i wojownicy-An Empress And The Warriors *2008* [DVDRip.XViD-M14CH0] [Lektor PL] [Kino Azja] Pompeii *2014* [TS] [XviD] [MP3] [ENG] Death Toll *2008* [DVDRip.XviD] [ENG]Max Payne *2008* [BluRay] [Lektor PL]UnderWorld *2003* [PAL] [DVD5] [Lektor i Napisy PL]Elephant White *2011*[BDRip] [XviD] [Lektor PL - ivo] [zizo5 P-T] Getaway *2013* [BRRip.XViD-b53] [Lektor PL IVO]
 300: Początek imperium - 300: Rise of an Empire (2014) [CAM] [x264.AC3-TiTAN] [ENG]  

Kategoria: Filmy / Akcja
Rozmiar: 840.21 MB
Dodał: [U].Truski
Dodany: 2014-03-13 22:07
Pobrano: 10

 300: Początek imperium - 300: Rise of an Empire (2014) [CAM] [x264.AC3-TiTAN] [ENG]  - Torki.pl  300: Początek imperium - 300: Rise of an Empire (2014) [CAM] [x264.AC3-TiTAN] [ENG]  - Torki.pl
 300: Początek imperium - 300: Rise of an Empire (2014) [CAM] [x264.AC3-TiTAN] [ENG]  300: Początek imperium - 300: Rise of an Empire (2014) [CAM] [x264.AC3-TiTAN] [ENG]  300: Początek imperium - 300: Rise of an Empire (2014) [CAM] [x264.AC3-TiTAN] [ENG] Reklama Sponsorowana

Premiery filmowe -  300: Początek imperium - 300: Rise of an Empire (2014) [CAM] [x264.AC3-TiTAN] [ENG]



Film online

Film bez limitu  300: Początek imperium - 300: Rise of an Empire (2014) [CAM] [x264.AC3-TiTAN] [ENG]



 300: Początek imperium - 300: Rise of an Empire (2014) [CAM] [x264.AC3-TiTAN] [ENG]


Opis Pliku Torrent | filmy,filmy online,mp-3,gry




Tytuł: 300: Rise of an Empire
Polski Tytuł: 300: Początek imperium
====================

Ocena: IMDB - 7.1/10 (31.684), Filmweb - 6.9/10 (5.797)
Produkcja: USA
Gatunek: Akcja, Historyczny, Wojenny
Czas trwania: 102 min.
Premiera: 07.03.2014 - Polska, 05.03.2014 - Świat
Reżyseria: Noam Murro
Scenariusz: Kurt Johnstad, Zack Snyder

OPIS

Po zwycięstwie nad oddziałami Leonidasa, wojska Xerxesa (Rodrigo Santoro) zmierzają w kierunku Aten. Mieszkańcy postanawiają, że obroną miasta będzie dowodził admirał Temistokles (Sullivan Stapleton). Ateńczycy razem z dawnym wrogiem, Spartą, szykują się do walki z największą armią świata. Ponadto Persowie chcą zaatakować nie tylko na lądzie, potężna flota pod dowództwem pięknej Artemizji (Eva Green) planuje zmieść w pył grecką marynarkę.

OBSADA

Sullivan Stapleton ... Temistokles
Eva Green ... Artemizja
Lena Headey ... Królowa Gorgo
Hans Matheson ... Aesyklos
Rodrigo Santoro ... Xerxes
Callan Mulvey ... Scyllias
David Wenham ... Dilios
Jack O'Connell ... Calisto

INFO

http://www.filmweb.pl/film/300%3A+Pocz%C4%85tek+imperium-2014-486130
http://fdb.pl/film/399733-300-poczatek-imperium
http://www.imdb.com/title/tt1253863/?ref_=hm_cht_t1

DANE TECHNICZNE

General
Format version : Version 2
File size : 840 MiB
Duration : 1h 33mn
Overall bit rate mode : Variable
Overall bit rate : 1 256 Kbps
Encoded date : UTC 2014-03-11 13:19:22
Writing application : mkvmerge v6.8.0 ('Theme for Great Cities') 32bit built on Mar 2 2014 21:27:07
Writing library : libebml v1.3.0 + libmatroska v1.4.1

Video
ID : 1
Format : AVC
Format/Info : Advanced Video Codec
Format profile : High@L4.1
Format settings, CABAC : Yes
Format settings, ReFrames : 3 frames
Codec ID : V_MPEG4/ISO/AVC
Duration : 1h 33mn
Bit rate mode : Variable
Bit rate : 1 039 Kbps
Maximum bit rate : 40.0 Mbps
Width : 704 pixels
Height : 304 pixels
Display aspect ratio : 2.35:1
Frame rate mode : Constant
Frame rate : 29.970 fps
Color space : YUV
Chroma subsampling : 4:2:0
Bit depth : 8 bits
Scan type : Progressive
Bits/(Pixel*Frame) : 0.162
Stream size : 695 MiB (83%)
Writing library : x264 core 140 r2377 1ca7bb9
Default : Yes
Forced : No
Color primaries : BT.709
Transfer characteristics : BT.709
Matrix coefficients : BT.709

Audio
ID : 2
Format : AC-3
Format/Info : Audio Coding 3
Mode extension : CM (complete main)
Format settings, Endianness : Big
Codec ID : A_AC3
Duration : 1h 33mn
Bit rate mode : Constant
Bit rate : 192 Kbps
Channel(s) : 2 channels
Channel positions : Front: L R
Sampling rate : 48.0 KHz
Bit depth : 16 bits
Compression mode : Lossy
Stream size : 128 MiB (15%)
Default : Yes
Forced : No



 300: Początek imperium - 300: Rise of an Empire (2014) [CAM] [x264.AC3-TiTAN] [ENG]  300: Początek imperium - 300: Rise of an Empire (2014) [CAM] [x264.AC3-TiTAN] [ENG]

Tagi: 300 Początek imperium 300 Rise Empire 2014 CAM x264 AC3 TiTAN ENG Filmy,Akcja
Komentarze

Brak komentarzy

Filmy bez limitów
REKLAMA : torrent, warez, wstawiaj, upload, linki warez

stat4u portal pozycjonowany na frazy : polskie torrenty, darmowe torrenty, torrent, torrenty, bittorrent, warez, upload. Projekt i wykonanie Torki.pl © Wszelkie prawa Zastrzeżone
Darmowe torrenty